Skip to main content

Camper Van Beethoven Live at The Middle East (downstairs) on 2011-01-16




Key Lime Pie Show

01. Opening Theme
02. Jack Ruby
03. Sweethearts
04. When I Win The Lottery
05. (I Was Born In A) Laundromat
06. Borderline
07. The Light From A Cake
08. June
09. All Her Favorite Fruit
10. Interlude
11. Flowers
12. The Humid Press of Days
13. Pictures of Matchstick Men
14. Come On Darkness
encore
15. Eye Of Fatima
16. Take The Skinheads Bowling


Collection CamperVanBeethoven
Band/Artist Camper Van Beethoven
Venue The Middle East (downstairs)
Location Cambridge, MA

Source Microtech Gefell M210's(DIN) and SBD>Audio Magic Hyper-Conductors>Edirol R-4(Oade T mod) @ 24/96
Lineage R-4>USB>pc>Sound Forge 7(mix {60%sbd} track, resample and dither to 16/44.1)> Flac Frontend 1.7.1
Taped by Jason Adler
Transferred by Jason Adler

Notes

Cracker performed their 1993 Kerosene Hat album in its entirety for the 4th time ever, and CVB played their 1989 Key Lime Pie for the second time ever.

Cracker set: http://www.archive.org/details/Cracker2011-01-16


Source: Microtech Gefell M210's(DIN) and SBD>Audio Magic Hyper-Conductors>Edirol R-4(Oade T mod) @ 24/96

Mic Placement: 20' from stage, hung from ceiling

Transfer: R-4>USB>pc>Sound Forge 7(mix {60%sbd} track, resample and dither to 16/44.1)> Flac Frontend 1.7.1

Taped and Transferred by Jason Adler Jason at Galactic-Trading dotcom

length expanded size cdr WAVE problems fmt ratio filename
4:21.60 46182032 B -b- -- ---xx flac 0.4737 CVB2011-01-16_MG210_MATRIX_16-44T01.flac
5:44.44 60784844 B -b- -- ---xx flac 0.5573 CVB2011-01-16_MG210_MATRIX_16-44T02.flac
4:54.24 51917028 B -b- -- ---xx flac 0.5667 CVB2011-01-16_MG210_MATRIX_16-44T03.flac
3:45.35 39771828 B -b- -- ---xx flac 0.5480 CVB2011-01-16_MG210_MATRIX_16-44T04.flac
4:21.48 46154208 B -b- -- ---xx flac 0.5543 CVB2011-01-16_MG210_MATRIX_16-44T05.flac
4:03.05 42876460 B -b- -- ---xx flac 0.5484 CVB2011-01-16_MG210_MATRIX_16-44T06.flac
2:46.39 29374084 B -b- -- ---xx flac 0.5251 CVB2011-01-16_MG210_MATRIX_16-44T07.flac
4:40.48 49504860 B -b- -- ---xx flac 0.5535 CVB2011-01-16_MG210_MATRIX_16-44T08.flac
5:15.12 55594148 B -b- -- ---xx flac 0.5346 CVB2011-01-16_MG210_MATRIX_16-44T09.flac
1:09.38 12260916 B -b- -- ---xx flac 0.4267 CVB2011-01-16_MG210_MATRIX_16-44T10.flac
3:09.70 33503868 B -b- -- ---xx flac 0.5374 CVB2011-01-16_MG210_MATRIX_16-44T11.flac
2:46.65 29435792 B -b- -- ---xx flac 0.5270 CVB2011-01-16_MG210_MATRIX_16-44T12.flac
4:37.61 49005176 B -b- -- ---xx flac 0.5716 CVB2011-01-16_MG210_MATRIX_16-44T13.flac
3:50.46 40680832 B -b- -- ---xx flac 0.4878 CVB2011-01-16_MG210_MATRIX_16-44T14.flac
5:17.52 56040272 B -b- -- ---xx flac 0.5783 CVB2011-01-16_MG210_MATRIX_16-44T15.flac
2:57.37 31309864 B -b- -- ---xx flac 0.5916 CVB2011-01-16_MG210_MATRIX_16-44T16.flac
63:43.08 674396212 B 0.5429 (16 files)

Reviews

Reviewer: Chris Rathman - - February 10, 2011
Subject: My favorite recording
This has to be my favorite CVB recording in the archive. Great sound and a complete cover of Key Lime Pie. Thanks for the music!
Reviewer: gigglejuice - - January 30, 2011
Subject: great show
man the sound is outstanding...thanks Jason and Morst...
DOWNLOAD OPTIONS
Uploaded by
morst
on 1/28/2011
Views
1,393
Favorites
2
Reviews
2
PEOPLE ALSO FOUND
Camper Van Beethoven
by Camper Van Beethoven
411
0
0
Camper Van Beethoven
by Camper Van Beethoven
153
0
0
Source: soundboard > Sony D5 > TDK MA90 cassette master tape
Camper Van Beethoven
by Camper Van Beethoven
9,949
0
1
( 1 reviews )
Source: Sony ECM-717 > Sharp MD-MT190MD
Camper Van Beethoven
by Camper Van Beethoven
2,679
0
1
( 1 reviews )
Source: Sony ECM-717 > Sharp Minidisc MD-MT190
Camper Van Beethoven
by Camper Van Beethoven
1,883
2
0
Source: B&K 4011-> Lunatec V2-> Benchmark AD2K+ FOB
Camper Van Beethoven
by Camper Van Beethoven
1,559
1
0
Source: DPA 4061 > Sony PCM-D50 > WAV @48/24
Camper Van Beethoven
by Camper Van Beethoven
1,727
1
1
( 1 reviews )
Source: Nakamichi CM-301 (ortf on stage with Leegeddy "active" mod) > pmod UA5> JB3
Camper Van Beethoven
by Camper Van Beethoven
13,255
1
2
( 2 reviews )
Source: Sony ECM-717 > Sharp Minidisc MD-MT19
Camper Van Beethoven
by Camper Van Beethoven
1,009
1
0
Source: SBD > ? > CD
Camper Van Beethoven
by Camper Van Beethoven
1,717
2
2
( 2 reviews )
Source: KM 140's > MV100 > SBM-1 (Oade mod) > D100